Castle of Illusion [MSU-MD]

Page 2 of 2 Previous  1, 2

Go down

20200906

Post 

Castle of Illusion [MSU-MD] - Page 2 Empty Castle of Illusion [MSU-MD]






Patch releases, sourcecode, wiki, issuetracker:
https://github.com/ArcadeTV/msu-md_castleOfIllusion

Soundpack: http://www.mediafire.com/file/b5osyvjqf155kxn/CastleOfIllusion-MsuMD_SoundPack.zip/file

Code:

                                      
 _____               _     _____ _____
|  _  |___ ___ ___ _| |___|_   _|  |  |
|     |  _|  _| .'| . | -_| | | |  |  |
|__|__|_| |___|__,|___|___| |_|  \___/
                                      

Title:         Castle of Illusion - MSU MD Version
System:        SEGA GENESIS / MEGA DRIVE (JP, US)
               [Works on real hardware with MEGA Everdrive Pro, MegaSD* or Cart/CD combo]
               *using MegaSD Firmware released AFTER 2020-09-07

SourceROMs:    USA: BA4E9FD0 >> Castle of Illusion Starring Mickey Mouse (USA, Europe).md
               JAP: CE8333C6 >> Castle of Illusion - Fushigi no Oshiro Daibouken (Japan).md

Date:          USA: v1.0 2020-09-07 08:00 p.m.
               JAP: v1.0 2020-09-06 11:00 p.m.
               SP:  2020-09-07 08:00 p.m. (80 min CD-R compatible)

Category:      Romhack / Music
Thanks:        Dustin O'Dell, Krikzz, Conn

Soundpack:    
http://www.mediafire.com/file/b5osyvjqf155kxn/CastleOfIllusion-MsuMD_SoundPack.zip/file

How to use:    https://github.com/ArcadeTV/msu-md_castleOfIllusion

Driver Source: https://github.com/krikzz/msu-md


Last edited by ArcadeTV on Mon 7 Sep 2020 - 15:19; edited 1 time in total
ArcadeTV
ArcadeTV

Castle of Illusion [MSU-MD] - Page 2 Image110

Since : 2017-10-16

Back to top Go down

Share this post on: redditgoogle

Castle of Illusion [MSU-MD] :: Comments

Brutapode89

Post on Tue 8 Sep 2020 - 16:52 by Brutapode89

I tested the US version on the Genesis Plus GX core and there's always this screen.
Castle of Illusion [MSU-MD] - Page 2 Lockou10
Can you fix it, please? Thanks.

Back to top Go down

ArcadeTV

Post on Tue 8 Sep 2020 - 17:12 by ArcadeTV

Go to settings and set a different country, just not EU/PAL.
Screen triggers on 2 things:
- no cd hardware found
- 50Hz System found

Back to top Go down

Brutapode89

Post on Tue 8 Sep 2020 - 17:26 by Brutapode89

It's doing the same thing and I don't know where "CD Hardware found" and "50Hz System found". Is it in the .asm file?

Back to top Go down

ArcadeTV

Post on Tue 8 Sep 2020 - 18:32 by ArcadeTV

it's commented, search for ntsc.
but you should consider the consequences, 50Hz means Audio will be out of sync.

wouldnt it be better to find the cause rather than to fight with the symptom?

Back to top Go down

jangfu

Post on Tue 8 Sep 2020 - 21:02 by jangfu

Retroplay wrote:Sega logo has sound.
https://streamable.com/is6drv

Nevermind audio/video quality, it got processed (or shredded) by Streamable. Wink

Regrettably
Can only use CD tracks
Cannot use OGG or WAV format
If using OGG or WAV format
Music tracks will not be specified

Back to top Go down

jangfu

Post on Wed 9 Sep 2020 - 2:11 by jangfu

jangfu wrote:
Retroplay wrote:Sega logo has sound.
https://streamable.com/is6drv

Nevermind audio/video quality, it got processed (or shredded) by Streamable. Wink

Regrettably
Can only use CD tracks
Cannot use OGG or WAV format
If using OGG or WAV format
Music tracks will not be specified

I found that re-editing CUE content
Can play OGG format correctly
And the track will not be confused

Code:


FILE "1.ogg" OGG
  TRACK 01 AUDIO
    INDEX 01 00:00:00
    REM NOLOOP
FILE "2.ogg" OGG
  TRACK 02 AUDIO
    INDEX 01 00:00:00
    REM LOOP 144
FILE "3.ogg" OGG
  TRACK 03 AUDIO
    INDEX 01 00:00:00
    REM LOOP 36
FILE "4.ogg" OGG
  TRACK 04 AUDIO
    INDEX 01 00:00:00
    REM LOOP 536
FILE "5.ogg" OGG
  TRACK 05 AUDIO
    INDEX 01 00:00:00
    REM LOOP 373
FILE "6.ogg" OGG
  TRACK 06 AUDIO
    INDEX 01 00:00:00
    REM LOOP 267
FILE "7.ogg" OGG
  TRACK 07 AUDIO
    INDEX 01 00:00:00
    REM LOOP 122
FILE "8.ogg" OGG
  TRACK 08 AUDIO
    INDEX 01 00:00:00
    REM LOOP 2597
FILE "9.ogg" OGG
  TRACK 09 AUDIO
    INDEX 01 00:00:00
    REM LOOP 573
FILE "10.ogg" OGG
  TRACK 10 AUDIO
    INDEX 01 00:00:00
    REM LOOP 98
FILE "11.ogg" OGG
  TRACK 11 AUDIO
    INDEX 01 00:00:00
    REM LOOP 190
FILE "12.ogg" OGG
  TRACK 12 AUDIO
    INDEX 01 00:00:00
    REM NOLOOP
FILE "13.ogg" OGG
  TRACK 13 AUDIO
    INDEX 01 00:00:00
    REM NOLOOP
FILE "14.ogg" OGG
  TRACK 14 AUDIO
    INDEX 01 00:00:00
    REM LOOP 578
FILE "15.ogg" OGG
  TRACK 15 AUDIO
    INDEX 01 00:00:00
    REM LOOP 378
FILE "16.ogg" OGG
  TRACK 16 AUDIO
    INDEX 01 00:00:00
    REM LOOP 45
FILE "17.ogg" OGG
  TRACK 17 AUDIO
    INDEX 01 00:00:00
    REM LOOP 514
FILE "18.ogg" OGG
  TRACK 18 AUDIO
    INDEX 01 00:00:00
    REM NOLOOP
FILE "19.ogg" OGG
  TRACK 19 AUDIO
    INDEX 01 00:00:00
    REM NOLOOP
FILE "20.ogg" OGG
  TRACK 20 AUDIO
    INDEX 01 00:00:00
    REM NOLOOP
FILE "21.ogg" OGG
  TRACK 21 AUDIO
    INDEX 01 00:00:00
    REM LOOP 115
FILE "22.ogg" OGG
  TRACK 22 AUDIO
    INDEX 01 00:00:00
    REM LOOP 1032
FILE "23.ogg" OGG
  TRACK 23 AUDIO
    INDEX 01 00:00:00
    REM LOOP 84
FILE "24.ogg" OGG
  TRACK 24 AUDIO
    INDEX 01 00:00:00
    REM NOLOOP
FILE "25.ogg" OGG
  TRACK 25 AUDIO
    INDEX 01 00:00:00
    REM LOOP 163
FILE "26.ogg" OGG
  TRACK 26 AUDIO
    INDEX 01 00:00:00
    REM LOOP 872
FILE "27.ogg" OGG
  TRACK 27 AUDIO
    INDEX 01 00:00:00
    REM LOOP 65
FILE "28.ogg" OGG
  TRACK 28 AUDIO
    INDEX 01 00:00:00
    REM LOOP 70
FILE "29.ogg" OGG
  TRACK 29 AUDIO
    INDEX 01 00:00:00
    REM LOOP 386
FILE "30.ogg" OGG
  TRACK 30 AUDIO
    INDEX 01 00:00:00
    REM LOOP 1983
FILE "31.ogg" OGG
  TRACK 31 AUDIO
    INDEX 01 00:00:00
    REM NOLOOP
FILE "32.ogg" OGG
  TRACK 32 AUDIO
    INDEX 01 00:00:00
    REM NOLOOP
FILE "33.ogg" OGG
  TRACK 33 AUDIO
    INDEX 01 00:00:00
    REM NOLOOP

Back to top Go down

Leonardo_BVB@hotmail.com

Post on Wed 9 Sep 2020 - 10:06 by Leonardo_BVB@hotmail.com

@ArcadeTV, here you can see it working fine on the Mega SD (Sega sound included):

https://youtu.be/b2fqz6Ulp00

Back to top Go down

ArcadeTV

Post on Wed 9 Sep 2020 - 10:14 by ArcadeTV

Is there a voice saying Castle of Illusion after the Sega logo?
That doesn't seem right and is not suposed to happen...
I have no megaSD so I can't test it. Thanks for the video!

Back to top Go down

Leonardo_BVB@hotmail.com

Post on Wed 9 Sep 2020 - 10:17 by Leonardo_BVB@hotmail.com

Yes, there is

Back to top Go down

ArcadeTV

Post on Wed 9 Sep 2020 - 10:25 by ArcadeTV

I can't tell if this is my fault or if the megaSD does funny things. It's not present in MEDpro or Fusion. I'll have a look, but dunno if I can fix it.

Back to top Go down

Leonardo_BVB@hotmail.com

Post on Wed 9 Sep 2020 - 17:48 by Leonardo_BVB@hotmail.com

Honestly, it is fine if you cannot fix it.

Back to top Go down

Brutapode89

Post on Fri 11 Sep 2020 - 20:26 by Brutapode89

It's working on the Genesis Plus GX core but there's not musics.

Back to top Go down

jangfu

Post on Fri 11 Sep 2020 - 23:17 by jangfu

Brutapode89 wrote:It's working on the Genesis Plus GX core but there's not musics.

use RetroArch Genesis Plus GX core

Back to top Go down

Brutapode89

Post on Fri 11 Sep 2020 - 23:35 by Brutapode89

Yes but what must I do to hear musics?

Back to top Go down

Retroplay

Post on Sat 12 Sep 2020 - 0:17 by Retroplay

Make sure you have all the correct bios files in Retroarch system folder.
Mine are as follows:
Code:
European:
Name: bios_CD_E.bin
Size: 131072
CRC32: 4d5cb8da
MD5: b10c0a97abc57b758497d3fae6ab35a4
SHA1: f5f60f03501908962446ee02fc27d98694dd157d

USA:
Name: bios_CD_U.bin
Size: 131072
CRC32: 2e49d72c
MD5: ecc837c31d77b774c6e27e38f828aa9a
SHA1: 328a3228c29fba244b9db2055adc1ec4f7a87e6b

Japanese:
Name: bios_CD_J.bin
Size: 131072
CRC32: 550f30bb
MD5: bdeb4c47da613946d422d97d98b21cda
SHA1: e4193c6ae44c3cea002707d2a88f1fbcced664de

Make sure the patched roms name matches the bin/cue CD image.
Like so:
Castle of Illusion Starring Mickey Mouse (MSU-MD).cue
Castle of Illusion Starring Mickey Mouse (MSU-MD).bin
Castle of Illusion Starring Mickey Mouse (MSU-MD).md

Also make sure name is correct in the cue sheet.
Open it in a text editor (Notepad++) and check if the name matches the bin file.

For example:
FILE "Castle of Illusion Starring Mickey Mouse (MSU-MD).bin" BINARY

Load the md rom and select Genesis Plus GX core, that's it.

Back to top Go down

Brutapode89

Post on Sat 12 Sep 2020 - 15:35 by Brutapode89

Ah! Guys! I used the bad Genesis Plus GX core. It's working and I can hear musics CD now, but there's not the "SEEGAA" sound.

And what a patch must I use to disable cheats?

Back to top Go down

ArcadeTV

Post on Sat 12 Sep 2020 - 16:20 by ArcadeTV

I will provide a patch without cheats when all testing is done.

Back to top Go down

Brutapode89

Post on Sat 12 Sep 2020 - 16:31 by Brutapode89

Ah? Have I downloaded a beta version, actually?

Back to top Go down

ArcadeTV

Post on Sat 12 Sep 2020 - 16:57 by ArcadeTV

Maybe.. but i also forgot to disable cheats in the us version

Back to top Go down

Brutapode89

Post on Mon 5 Oct 2020 - 17:50 by Brutapode89

Please. By playing the US version, there's always the prologue music instead the "SEEEGAAA!" music in the Sega's logo screen.

Back to top Go down

Page 2 of 2 Previous  1, 2

Back to top


 
Permissions in this forum:
You cannot reply to topics in this forum